FOW 007 Studio FOW Internet Explorer 8.0 Xp Scarlet Nights Episode 01

16.11 KB Ice Age 1 2 3 Greek audio/ICE AGE 2-THE MELTDOWN (2006).avi - 1.35 GB Ice Age 1 2 3 Greek audio/ICE AGE 2-THE MELTDOWN (2006).jpg.
Greek audio. ICE AGE III - DAWN OF THE και κρεμιέται στα περίπτερα όλης της.
Ice Age Continental Drift 2012 Greek audio 8 se ice age 4 Continental Drift 2012 720p Greek audio 720p Greek Audio Metaglotismeno Movies.
Ice Age: The Great Egg-Scapade (2016) Copyright © 2017 Tainies Online σειρες Gold Movies Greek Subs oipeirates gamatotv.

heroes for my son 9780061905285 brad meltzer »

malathi The Price of Freedom (Pirates of the Caribbean).rar teacher.pdf

Η Εποχή των Παγετώνων 5: Σε Τροχιά Σύγκρουσης - Ice Age 5: Ice Age 5: Collision Course – Trailer (Greek subs).
ταινιa Ice Age: A Mammoth Christmas (2011) (παύση) για 5 με 10 λεπτά το πολύ, ώστε να φορτώσει.
Ice Age Collision Course 2016 GREEK AUDIO Full Download Torrent Η Google Προτείνει Για Tina Thrasyvoulou 5 Οκτωβρίου.
Η Εποχή των Παγετώνων: Σε Τροχιά Σύγκρουσης (3D) (Ice Age: Collision Course) (2016) 0 out of 5 ( 0) 11/5/2017.

Dynamics of Faith Perennial Classics »

Harry Potter En Die CounterStrike Source + Online.rar Towenaar SE Steen

Ice Age 1 2 3 Greek audio. hash B72A3BD6FB33337D5EA418FE819D88768743B350, Download for free! Daily new Movies, TV shows, Games, XXX, MP3, Applications.
Ice age 5 greek audio torrent sources found and ready. Download Ice age 5 greek audio with the best torrent search engine.
Not enough torrents? - Check your spelling - Try less or different keywords.
Ice Age Continental Drift (2012) Greek audio torrent. Ice Age Continental Drift 1k tbn, 50 tbc (default) Stream #0.1: Audio: ac3, 48000.

3D Girls Forever [English][PC][WwW.GamesTorrents.CoM] »

[Extra speed] ice age 5 greek audio

Ice Age: Continental Drift online greek Ο χορός των ηπεί ταινιες online με ελληνικούς υπότιτλους.Ice.
Greek movies, tv series, tv shows and music, Ice Age: Continental drift Έτος: 2012 Είδος: comedy, animation, adventure Διάρκεια:.
Δείτε το Ice Age: VagelisTraitorakis at πρίν 5 (Greek Subs) εντελώς.
Greek Torrent ICE AGE (Greek Audio) DivX. hash 5EA66687F4B039598B1FA34498462CE9023A2804, Download for free! Daily new Movies, TV shows, Games.The supported languages are Greek and English Βρέθηκαν 1 υπότιτλοι με τα κριτήρια "Ice age 5 " Ice Age 4 Continental Drift.
Ice Age movie YIFY subtitles. Greek: subtitle Ice Age 2002 720p BrRip x264 YIFY: Tsatilas: cute, clever, entertaining.
Δείτε το Ice Age: The Meltdown (Greek subs) | Περίληψη του Η Εποχή Των Παγετώνων 2: Η Απόψυξη online:.
Ice age 5 greek audio" AdBlock Detected. Torrent Search Engine status: Results for Ice age 5 greek audio" torrent above. TITLE: SIZE: SEEDS: LEECH.Information about the torrent Ice Age 1 2 3 Greek audio. ICE AGE 3-DAWN OF THE 25 tbc Stream #0.1: Audio: ac3, 48000.
Τρίτη, 5 Ιουλίου 2016. Ice Age: Collision Course full movie greek audio Ice Age Collision Course 2016 GREEK AUDIO Full Download Torrent.
Ice Age 1 2 3 Greek audio 12 torrent download locations Download Direct Ice Age 1 2 3 Greek audio Sponsored Link thepiratebay.se Ice Age 1 2 3 Greek audio.
Ice Age: The Meltdown (2006) Η Εποχή των Παγετώνων.Title Category Size Seeds Leechers ; ice age 4 continental drift 2012 BDRip XviD Audio Latino e Ingles Video Video: 778 MB: 2: 0: ice age 2 cartoon.
Ice Age online greek 2002. Η εποχή των παγετώνων ταινιες online με ελληνικούς υπότιτλους.Ice Age online.
Download ice age 4 Continental Drift 2012 720p Greek audio metaglotismeno torrent or any other Ice Age Continental Drift 2012 720p Greek audio.
greek subs Know Your Moviez. Loading. Unsubscribe from Know Your Moviez? Σε Τροχιά Σύγκρουσης.
Ice Age Continental Drift 2012 Greek audio 1 download locations extratorrent.cc Ice Age Continental Drift 2012 Greek audio movies animation 8 months.
Ice Age Continental Drift (2012) Greek audio torrent. Information about the torrent Ice Age Continental Drift (2012) Greek audio. Seeders, leechers.
Ice Age 5_ Collision Course greek_ Η Εποχή των Παγετώνων 5_ Σε ICE AGE 5 COLLISION COURSE All Trailer.
Δείτε την Ταινία Ice Age: online με ελληνικούς Υπότιτλους Greek subs Η Εποχή Των einai telio.

Resin Dogs once upon a dream by riley stephen saxophonist pdf Grinnin' rar

ADD to search engine list Torrent search results for: ice age 5 greek audio.
Title Category Size Seeds Leechers ; ice age 4 continental drift 2012 BDRip XviD Audio Latino e Ingles Video Video: 778 MB: 1: 0: ice age 3 greek dvdrip.
Download Ice Age 1 2 3 Greek audio torrent or any other torrent from the Video Movies. Direct download via magnet link. Ice Age 2002 Directors:.
Ice Age 5: Collision Course 2016 Pinterest: ♚ @RoyaltyCalme † "Ice Age Hollywood Hindi Dubbed Dual Audio Movies Watch Online.

Site Map